» » Eye To Eye - Eye To Eye

Eye To Eye - Eye To Eye album

Eye To Eye  - Eye To Eye album Performer: Eye To Eye
Title: Eye To Eye
Style: Synth-pop
Date of release: 1999
Country: US
Size MP3: 1872 mb
Size FLAC: 1954 mb
Rating: 4.6
Format: MP3 MMF ASF WMA AAC MPC MP4

Third Eye Blind is the debut studio album by American rock band Third Eye Blind. It was released on 8 April 1997 by Elektra Records. The album spawned five singles, including the top ten chart hits "Semi-Charmed Life", "Jumper", and "How's It Going to Be". While Third Eye Blind only peaked at number 25 on the Billboard 200, it spent 106 weeks on the chart

Eye II Eye is the fourteenth studio album by the German hard rock band Scorpions, released in 1999. It is a radical departure in that Eye II Eye is much more pop-oriented than their previous work, which alienated some fans, despite the single "Mysterious" reaching number 26 on the Billboard Hot Mainstream Rock Tracks chart.

Eye to Eye слушать онлайн. Прослушать Скачать 05:05. Eye To Eye. Прослушать Скачать 03:22. Прослушать Скачать 03:10. HUNCHO JACK, Travis Scott, Quavo feat.

6. LYRICS  . Producer: Peter Wolf Engineer: Christian Leitgeb, . Eye II Eye is the fourteenth studio album released on 9 March 1999.

You know we never see eye to eye Try to explain and you ask me why A sinking feeling when I see you there I should have known that you would never care Why did you ask me out tonight? Why call me up and say the time is right? Now its time to put down my head With or without you I'm going to bed. Saw what you did, heard what you say What the hell are you doing here anyway? (x4). Eye To Eye" Track Info.

Eye To Eye (GMS 2010 Remix) Astrix. Eye To Eye Surveillance. Eye To Eye Quarterflash. Eye To Eye Boulevard. Welcome to My World Demon's Eye. 7:22. Road to Glory Demon's Eye. 4:36. Closer to Heaven Demon's Eye. 4:58. To Love Somebody Eagle-Eye Cherry. To Burn The Eye Trivium. About To Break Third Eye Blind. There is nowhere to go but there Third Eye.

Eye To Eye" was the result, and if you never heard this album you're missing something great. With the extremely talented Max Norman (Ozzy, Coney Hatch, Y&T) producing, mixing and engineering, 220 Volt obtained a punchy, glossy, awesome polished sound ready to conquer the world.

Eye To Eye is a English album released on Jan 2013. Eye To Eye Album has 13 songs sung by 220 Volt. Listen to all songs in high quality & download Eye To Eye songs on Gaana. attr("src", $('. de tp. d t img img').

Tracklist Hide Credits

1 Hunger Pains
Keyboards – Ian UnderwoodMarimba – Ruth UnderwoodPercussion – Starz Vanderlocket
4:01
2 Life In Motion
Percussion – Starz VanderlocketSoloist, Guitar – Elliot Randall*
4:17
3 Nice Girls
Programmed By [Synthesizer Programming] – Ian UnderwoodSoloist, Guitar – Elliot Randall*
5:11
4 More Hopeless Knowledge
Drums – Jim KeltnerPercussion – Starz VanderlocketSoloist, Guitar – Elliot Randall*
4:09
5 Progress Ahead
Arranged By – Eye To Eye , Rhett Davies
3:50
6 Physical Attraction
Bass – Abraham LaborielPercussion – Starz VanderlocketSoloist, Guitar – Elliot Randall*
4:26
7 Time Flys
Backing Vocals [Background Vocals] – Deborah Berg, Timothy B. Schmit
5:11
8 On The Mend
Drums – Jim KeltnerGuitar – Dean ParksPercussion – Starz VanderlocketSoloist, Guitar – Rick DerringerSoloist, Synthesizer – Donald Fagen
4:24

Credits

  • Bass – Chuck Rainey (tracks: A1 to B1, B3, B4)
  • Drums – Jeff Porcaro (tracks: A1 to A3, B1 to B3)
  • Engineer – Daniel Lazarus*, Elliot Scheiner, Roger Nichols
  • Guitar – Rick Derringer (tracks: A1 to B3)
  • Producer – Gary Katz
  • Written-By, Keyboards – Julian Marshall
  • Written-By, Vocals – Deborah Berg

Other versions

Category Artist Title (Format) Label Category Country Year
BSK 3570 Eye To Eye Eye To Eye ‎(LP, Album, Jac) Warner Bros. Records, Automatic Record Co. BSK 3570 US 1982
WB K 56940 Eye To Eye Eye To Eye ‎(LP, Album) Warner Bros. Records WB K 56940 Germany 1982
WB 56940, WB K 56940 Eye To Eye Eye To Eye ‎(LP, Album) Warner Bros. Records, Warner Bros. Records WB 56940, WB K 56940 France 1982
BSK 3570 Eye To Eye Eye To Eye ‎(LP, Album) Warner Bros. Records, Automatic Record Co. BSK 3570 Australia & New Zealand 1982
WAR 56940 Eye To Eye Eye To Eye ‎(LP, Album) Warner Bros. Records WAR 56940 Portugal 1982


User reviews
Skrimpak
foobar2000 1.3.17 / Dynamic Range Meter 1.1.1log date: 2018-07-03 21:34:26--------------------------------------------------------------------------------Analyzed: Eye To Eye / Eye To Eye [JP 1999 CD]--------------------------------------------------------------------------------DR Peak RMS Duration Track--------------------------------------------------------------------------------DR10 -0.55 dB -12.95 dB 4:02 01-Hunger PainsDR10 -0.45 dB -12.67 dB 4:20 02-Life In MotionDR10 -0.43 dB -12.48 dB 5:12 03-Nice GirlsDR11 -0.38 dB -15.56 dB 4:11 04-More Hopeless KnowledgeDR9 -0.40 dB -11.09 dB 3:57 05-Progress AheadDR10 -0.40 dB -12.62 dB 4:31 06-Physical AttractionDR11 -0.48 dB -13.68 dB 5:13 07-Time FlysDR13 -0.64 dB -15.47 dB 4:25 08-On The Mend--------------------------------------------------------------------------------Number of tracks: 8Official DR value: DR10Samplerate: 44100 HzChannels: 2Bits per sample: 16Bitrate: 710 kbpsCodec: ALAC================================================================================